If you have not already, we suggest setting your Plex username to something else rather than email which is displayed on your posts in forum. You can change the username at https://app.plex.tv/desktop#!/account
Welcome to our forums! Please take a few moments to read through our Community Guidelines (also conveniently linked in the header at the top of each page). There, you'll find guidelines on conduct, tips on getting the help you may be searching for, and more!

Bug: Video plays back at high speed; sound runs at normal speed

wintrmutewintrmute Posts: 21Members ✭✭

I have some video files (mix of AVC and HEVC at 720p and 1080p) which play back at high speed. Far, far too fast.
The sound runs at normal speed, though.

This is on Android TV (Mi Box).

These files play back just fine in Kodi, and they also play fine in the web version of Plex if I access it from a PC in Chrome.

I re-encoded one of the files (from x264 to HEVC) in case it helped -- but even after that, the problem persisted.
Note that many other files play back fine; so I don't understand what is different about the set of files that misbehave in Plex.

Stream details:

Input #0, matroska,webm
  Metadata:
    CREATION_TIME   : 2017-06-19 18:24:54
    ENCODER         : Lavf56.40.101
  Duration: 00:57:33.22, start: 0.000000, bitrate: 1361 kb/s
    Stream #0:0: Video: hevc (Main), yuv420p(tv), 1280x720 [SAR 1:1 DAR 16:9], 23.98 fps, 23.98 tbr, 1k tbn, 23.98 tbc (default)
    Stream #0:1(eng): Audio: eac3, 48000 Hz, 5.1(side), fltp, 640 kb/s (default)
Sign In or Register to comment.