Welcome to our forums! Please take a few moments to read through our Community Guidelines (also conveniently linked in the header at the top of each page). There, you'll find guidelines on conduct, tips on getting the help you may be searching for, and more!

Stutter with DTS-HD 6.1 AUDIO on Nvidia Shield

MrHydeMrHyde Members Posts: 77 ✭✭

Hello,

I'm having trouble with the Empire Strikes Back and Return of the Jedi both ripped from the Blu-Ray box set.

I seem to get some rather odd judder, in the movies where as every other movie plays fine over the wired network. My receiver can play all the relevant audio types and I have passthrough enabled.

I thought it may have been down to the PGS subtitles but then realised that many of my other films have PGS subs, The Godfather being one of them with PGS subs and a TRUE-HD audio track.

Has anyone else experienced this? Media Info below..

media/Movies/Blu Rays/The Empire Strikes Back.mkv

Format : Matroska
Format version : Version 2
File size : 34.7 GiB
Duration : 2h 7mn
Overall bit rate mode : Variable
Overall bit rate : 39.0 Mbps
Movie name : The Empire Strikes Back
Encoded date : UTC 2017-02-26 15:16:55
Writing application : MakeMKV v1.10.4 darwin(x86-release)
Writing library : libmakemkv v1.10.4 (1.3.3/1.4.4) darwin(x86-release)
Original source medium : Blu-ray

Video
ID : 1
ID in the original source medium : 4113 (0x1011)
Format : AVC
Format/Info : Advanced Video Codec
Format profile : High@L4.1
Format settings, CABAC : Yes
Format settings, ReFrames : 4 frames
Codec ID : V_MPEG4/ISO/AVC
Duration : 2h 7mn
Bit rate mode : Variable
Bit rate : 32.3 Mbps
Maximum bit rate : 36.6 Mbps
Width : 1 920 pixels
Height : 1 080 pixels
Display aspect ratio : 16:9
Frame rate mode : Constant
Frame rate : 23.976 (24000/1001) fps
Color space : YUV
Chroma subsampling : 4:2:0
Bit depth : 8 bits
Scan type : Progressive
Bits/(Pixel*Frame) : 0.649
Stream size : 28.7 GiB (83%)
Language : English
Default : No
Forced : No
Color range : Limited
Color primaries : BT.709
Transfer characteristics : BT.709
Matrix coefficients : BT.709

Audio #1
ID : 2
ID in the original source medium : 4352 (0x1100)
Format : DTS
Format/Info : Digital Theater Systems
Format profile : MA / ES Discrete / Core
Mode : 16
Format settings, Endianness : Big
Codec ID : A_DTS
Duration : 2h 7mn
Bit rate mode : Variable / Constant / Constant
Bit rate : 4 564 Kbps / 1 509 Kbps / 1 509 Kbps
Channel(s) : 7 channels / 7 channels / 6 channels
Channel positions : Front: L C R, Side: L R, Back: C, LFE / Front: L C R, Side: L R, Back: C, LFE / Front: L C R, Side: L R, LFE
Sampling rate : 48.0 KHz
Frame rate : 93.750 fps (512 spf)
Bit depth : 24 bits
Compression mode : Lossless / Lossy / Lossy
Stream size : 4.06 GiB (12%)
Title : Surround 6.1
Language : English
Default : Yes
Forced : No

Audio #2
ID : 3
ID in the original source medium : 4352 (0x1100)
Format : DTS
Format/Info : Digital Theater Systems
Format profile : ES Discrete / Core
Mode : 16
Format settings, Endianness : Big
Codec ID : A_DTS
Duration : 2h 7mn
Bit rate mode : Constant
Bit rate : 1 509 Kbps
Channel(s) : 7 channels / 6 channels
Channel positions : Front: L C R, Side: L R, Back: C, LFE / Front: L C R, Side: L R, LFE
Sampling rate : 48.0 KHz
Frame rate : 93.750 fps (512 spf)
Bit depth : 24 bits
Compression mode : Lossy
Stream size : 1.34 GiB (4%)
Title : Surround 5.1
Language : English
Default : No
Forced : No

Audio #3
ID : 4
ID in the original source medium : 4353 (0x1101)
Format : AC-3
Format/Info : Audio Coding 3
Mode extension : CM (complete main)
Format settings, Endianness : Big
Codec ID : A_AC3
Duration : 2h 7mn
Bit rate mode : Constant
Bit rate : 448 Kbps
Channel(s) : 6 channels
Channel positions : Front: L C R, Side: L R, LFE
Sampling rate : 48.0 KHz
Frame rate : 31.250 fps (1536 spf)
Bit depth : 16 bits
Compression mode : Lossy
Stream size : 408 MiB (1%)
Title : Surround 5.1
Language : English
Default : No
Forced : No

Text #1
ID : 5
ID in the original source medium : 4608 (0x1200)
Format : PGS
Codec ID : S_HDMV/PGS
Codec ID/Info : Picture based subtitle format used on BDs/HD-DVDs
Duration : 2h 7mn
Bit rate : 42.4 Kbps
Count of elements : 3106
Stream size : 38.6 MiB (0%)
Language : English
Default : No
Forced : No

Text #2
ID : 15
ID in the original source medium : 4617 (0x1209)
Format : PGS
Codec ID : S_HDMV/PGS
Codec ID/Info : Picture based subtitle format used on BDs/HD-DVDs
Duration : 2h 7mn
Bit rate : 100 Kbps
Count of elements : 4166
Stream size : 91.0 MiB (0%)
Language : English
Default : No
Forced : No

Text #3
ID : 17
ID in the original source medium : 4618 (0x120A)
Format : PGS
Codec ID : S_HDMV/PGS
Codec ID/Info : Picture based subtitle format used on BDs/HD-DVDs
Duration : 2h 7mn
Bit rate : 95.2 Kbps
Count of elements : 3744
Stream size : 86.6 MiB (0%)
Language : English
Default : No
Forced : No

Text #4
ID : 35
ID in the original source medium : 4635 (0x121B)
Format : PGS
Codec ID : S_HDMV/PGS
Codec ID/Info : Picture based subtitle format used on BDs/HD-DVDs
Duration : 2h 7mn
Bit rate : 1 687 bps
Count of elements : 344
Stream size : 1.54 MiB (0%)
Language : English
Default : No
Forced : No

Text #5
ID : 36
ID in the original source medium : 4635 (0x121B)
Format : PGS
Codec ID : S_HDMV/PGS
Codec ID/Info : Picture based subtitle format used on BDs/HD-DVDs
Duration : 2h 7mn
Bit rate : 1 687 bps
Count of elements : 344
Stream size : 1.54 MiB (0%)
Language : English
Default : No
Forced : No

Text #6
ID : 37
ID in the original source medium : 4636 (0x121C)
Format : PGS
Codec ID : S_HDMV/PGS
Codec ID/Info : Picture based subtitle format used on BDs/HD-DVDs
Duration : 2h 7mn
Bit rate : 1 920 bps
Count of elements : 302
Stream size : 1.75 MiB (0%)
Language : English
Default : No
Forced : No

Text #7
ID : 38
ID in the original source medium : 4636 (0x121C)
Format : PGS
Codec ID : S_HDMV/PGS
Codec ID/Info : Picture based subtitle format used on BDs/HD-DVDs
Duration : 2h 7mn
Bit rate : 1 920 bps
Count of elements : 302
Stream size : 1.75 MiB (0%)
Language : English
Default : No
Forced : No

Tagged:

Best Answers

Answers

  • MrHydeMrHyde Members Posts: 77 ✭✭

    @Andrroid said:
    DTS-HD 6.1 is not supported on the shield, unfortunately. I suggest re-ripping and keeping a copy of the DTS track solely and using that.

    Notable movies that have DTS-HD 6.1 include star wars 1-6, the lord of the rings series and x-men the last stand.

    Thank you I do find that very odd! I guess I will just watch them on my Blu-Ray player.

  • MrHydeMrHyde Members Posts: 77 ✭✭

    I just noticed that Nvidia added 6.1 audio configurations in an update so I guess it's now just plex who need to add it in?

  • MrHydeMrHyde Members Posts: 77 ✭✭

    Thank you that's music to my ears! or DTS 6.1 :)

  • AshFliXAshFliX Members, Plex Pass Posts: 56 Plex Pass

    Unfortunately not. The issue is still with Exoplayer. I have logged a ticket with NVidia support and sent them logs.

    When playing a DTS 6.1 or DTS HD MA 6.1 MKV you get this

    04-09 20:39:38.373 i: [Exo1VideoPlayer] Bandwidth sample, Elapsed: 40, Bytes: 43537, Bitrate: 8707400
    04-09 20:39:38.374 i: [Exo1VideoPlayer] Player state changed: 3, Restarting: true
    04-09 20:39:38.524 e: [Exo1VideoPlayer] Player error detected
    04-09 20:39:38.525 e: An exception occurred: com.google.android.exoplayer.j: com.google.android.exoplayer.a.i: AudioTrack init failed: 0, Config(48000, 1276, 49152)
    04-09 20:39:38.525 e: Stacktrace: com.google.android.exoplayer.j: com.google.android.exoplayer.a.i: AudioTrack init failed: 0, Config(48000, 1276, 49152)
    at com.google.android.exoplayer.t.a(SourceFile:383)
    at com.google.android.exoplayer.w.b(SourceFile:954)
    at com.google.android.exoplayer.w.a(SourceFile:528)
    at com.google.android.exoplayer.am.a(SourceFile:128)
    at com.google.android.exoplayer.p.j(SourceFile:432)
    at com.google.android.exoplayer.p.handleMessage(SourceFile:211)
    at android.os.Handler.dispatchMessage(Handler.java:98)
    at android.os.Looper.loop(Looper.java:154)
    at android.os.HandlerThread.run(HandlerThread.java:61)
    at com.google.android.exoplayer.g.y.run(SourceFile:40)
    Caused by: com.google.android.exoplayer.a.i: AudioTrack init failed: 0, Config(48000, 1276, 49152)
    at com.google.android.exoplayer.a.e.p(SourceFile:914)
    at com.google.android.exoplayer.a.e.a(SourceFile:481)
    at com.google.android.exoplayer.a.e.b(SourceFile:455)
    at com.google.android.exoplayer.t.a(SourceFile:377)
    ... 9 more

  • RICH|FLIXRICH|FLIX Members, Plex Pass Posts: 126 Plex Pass
    edited June 5

    Deleted - Started a new thread regarding similar issue. Sorry for the mess.

    PLEX Server on unRAID | PLEX Server on WD PR4100

    Mac mini | Nvidia Shield | iOS | tvOS | Xbox One | RaspberryPi Embedded | Roku | Chromecast | Windows 10

Sign In or Register to comment.